linxiang

[2006] [其他] [剧情] 九月黎明/9月黎明 September.Dawn.2007.1080p.BluRay.H264.AAC-RARBG 2.13GB






◎译  名 九月黎明 / 9月黎明
◎片  名 September Dawn
◎年  代 2006
◎产  地 加拿大
◎类  别 剧情 / 爱情 / 历史 / 西部
◎语  言 英语
◎上映日期 2007-05-17
◎IMDb评分 5.8/10 from 2785 users
◎IMDb链接 http://www.imdb.com/title/tt0473700
◎豆瓣评分 6.6/10 from 61 users
◎豆瓣链接 https://movie.douban.com/subject/2036944/
◎片  长 110 分钟
◎导  演 Christopher Cain
◎编  剧 Christopher Cain / Carole Whang Schutter
◎主  演 Terence Stamp
      Trent Ford
      Krisinda Cain
      Shaun Johnston
      Dean Cain


◎标  签 摩门教 | 加拿大 | 西部 | 屠杀 | September | 美国电影 | 剧情 | Dawn

◎简  介

  本片讲述的是19世纪一个罗密欧和朱丽叶式的爱情故事。故事以1857年9月11日发生的美洲历史上著名的高原惨案为背景,一批去往加利福尼亚的马车队路经犹他州南部,摩门教探知其中有1838年曾参与执行“清剿令”,强行将摩门教徒驱逐出密苏里州的Han's Mill惨案的凶手,随即作出复仇决定。他们暗中联合印第安人部落,对车队包围突袭,以上帝的名义击毙和处死120名男女,只有17名10岁以下儿童幸免。后来,参与指挥策划的摩门教首领John D.Lee被判死刑,20年后,摩门教领导人杨百翰的养子被判处死刑。因为电影所反应出来的观点,到今天这个事件一直饱受争议。
两个年轻人,一个是摩门教徒,是当地摩门主教的儿子,另一个是车马队牧师的小女儿,是从阿肯色州迁往加利福尼亚的移民,不管两个家族之间的仇恨多深,也不管世俗的看法多么顽固,两人还是萌生了美丽动人的爱情之苗,向对方倾诉自己的爱慕之情……
来源:时光网

Video
ID : 1
Format : AVC
Format/Info : Advanced Video Codec
Format profile : [email protected]
Format settings : CABAC / 4 Ref Frames
Format settings, CABAC : Yes
Format settings, ReFrames : 4 frames
Codec ID : avc1
Codec ID/Info : Advanced Video Coding
Duration : 1 h 51 min
Bit rate : 2 500 kb/s
Width : 1 920 pixels
Height : 1 080 pixels
Display aspect ratio : 16:9
Frame rate mode : Constant
Frame rate : 23.976 (23976/1000) FPS
Color space : YUV
Chroma subsampling : 4:2:0
Bit depth : 8 bits
Scan type : Progressive
Bits/(Pixel*Frame) : 0.050
Stream size : 1.95 GiB (92%)
Writing library : x264 core 152 r2851M ba24899
Encoding settings : cabac=1 / ref=4 / deblock=1:-1:-1 / analyse=0x3:0x113 / me=umh / subme=9 / psy=1 / psy_rd=1.00:0.15 / mixed_ref=1 / me_range=24 / chroma_me=1 / trellis=2 / 8x8dct=1 / cqm=0 / deadzone=21,11 / fast_pskip=1 / chroma_qp_offset=-3 / threads=32 / lookahead_threads=4 / sliced_threads=0 / nr=0 / decimate=1 / interlaced=0 / bluray_compat=0 / constrained_intra=0 / bframes=3 / b_pyramid=2 / b_adapt=2 / b_bias=0 / direct=3 / weightb=1 / open_gop=0 / weightp=2 / keyint=250 / keyint_min=25 / scenecut=40 / intra_refresh=0 / rc_lookahead=50 / rc=2pass / mbtree=1 / bitrate=2500 / ratetol=1.0 / qcomp=0.60 / qpmin=0 / qpmax=69 / qpstep=4 / cplxblur=20.0 / qblur=0.5 / vbv_maxrate=31250 / vbv_bufsize=31250 / nal_hrd=none / filler=0 / ip_ratio=1.40 / aq=3:1.00
Encoded date : UTC 2019-04-29 23:36:15
Tagged date : UTC 2019-04-29 23:36:15
Codec configuration box : avcC

Audio
ID : 2
Format : AAC LC
Format/Info : Advanced Audio Codec Low Complexity
Codec ID : mp4a-40-2
Duration : 1 h 51 min
Bit rate mode : Constant
Bit rate : 224 kb/s
Channel(s) : 2 channels
Channel layout : L R
Sampling rate : 48.0 kHz
Frame rate : 46.875 FPS (1024 SPF)
Compression mode : Lossy
Stream size : 179 MiB (8%)
Language : English
Default : Yes
Alternate group : 1
Encoded date : UTC 2019-04-29 23:36:15
Tagged date : UTC 2019-04-29 23:36:15






1 个附件(点击附件名进行下载) 售价 大小 下载 时间

0 金币 21.82K 44 次 1月前

#1楼
发帖时间:1月前   |   查看数:0   |   回复数:0
游客组
快速回复