bulaite

[WEB-1080P] [其他] [剧情] 冷血追击 Cold.Pursuit.2019.1080p.WEB-DL.DD5.1.H264-FGT 4.12GB






◎译  名 冷血追击 / Hard Powder / In Order of Disappearance / 冰天动地(港) / 冰峰追击 / 硬粉 / 穷追不舍 / 酷寒杀手(台)
◎片  名 Cold Pursuit
◎年  代 2019
◎产  地 英国 / 挪威 / 加拿大 / 美国
◎类  别 剧情 / 动作 / 惊悚
◎语  言 英语
◎上映日期 2019(中国大陆) / 2019-02-08(美国) / 2019-02-22(英国)
◎IMDb评分 6.2/10 from 22988 users
◎IMDb链接 http://www.imdb.com/title/tt5719748
◎豆瓣评分 6.7/10 from 5422 users
◎豆瓣链接 https://movie.douban.com/subject/26810068/
◎片  长 119分钟
◎导  演 汉斯·皮特·莫郎 Hans Petter Moland
◎编  剧 弗兰克·鲍德温 Frank Baldwin / 基姆·弗帕兹·艾克森 Kim Fupz Aakeson
◎主  演 连姆·尼森 Liam Neeson
      劳拉·邓恩 Laura Dern
      米切尔·理查德森 Micheál Richardson
      迈克尔·艾克朗德 Michael Eklund
      布拉德利·斯泰克尔 Bradley Stryker
      韦斯利·麦金尼斯 Wesley MacInnes
      汤姆·巴特曼 Tom Bateman
      多米尼克·隆巴多兹 Domenick Lombardozzi
      尼古拉斯·福尔摩斯 Nicholas Holmes
      吉姆·谢尔德 Jim Shield
      阿莱克斯·潘诺维奇 Aleks Paunovic


◎标  签 犯罪 | 黑色幽默 | 复仇 | 动作 | 美国 | 2019 | LiamNeeson | 英国

◎简  介

  尼尔斯·考克斯曼(连姆·尼森 饰)是科罗拉多基侯滑雪场的扫雪车司机,身为荣誉市民的他终日勤恳工作,以保证这座宁静小镇交通的顺畅。有天突然传来儿子身亡的消息。为了追查出杀害儿子的真凶,怒火中烧的尼尔斯不惜以身犯险,卷入重重杀人案,踏上了歼灭贩毒团伙的道路。复仇路上,狂妄冷 血的毒枭“海盗哥”、残暴的印第安帮派首脑“大白”等浮出水面,错综复杂的凶狠敌军、险象环生的黑帮对峙、以及枪林弹雨下的生死大战,一场冤冤相报的血雨腥风席卷了这座雪白安宁的小镇……

Video
ID : 1
Format : AVC
Format/Info : Advanced Video Codec
Format profile : [email protected]
Format settings : CABAC / 5 Ref Frames
Format settings, CABAC : Yes
Format settings, ReFrames : 5 frames
Codec ID : V_MPEG4/ISO/AVC
Duration : 1 h 58 min
Bit rate : 4 571 kb/s
Width : 1 920 pixels
Height : 800 pixels
Display aspect ratio : 2.40:1
Frame rate mode : Constant
Frame rate : 23.976 (23976/1000) FPS
Color space : YUV
Chroma subsampling : 4:2:0
Bit depth : 8 bits
Scan type : Progressive
Bits/(Pixel*Frame) : 0.124
Stream size : 3.80 GiB (92%)
Title : Cold.Pursuit.2019.1080p.WEB-DL.DD5.1.H264-FGT
Language : English
Default : Yes
Forced : No
Color range : Limited
Color primaries : BT.709
Transfer characteristics : BT.709
Matrix coefficients : BT.709

Audio
ID : 2
Format : AC-3
Format/Info : Audio Coding 3
Commercial name : Dolby Digital
Codec ID : A_AC3
Duration : 1 h 58 min
Bit rate mode : Constant
Bit rate : 384 kb/s
Channel(s) : 6 channels
Channel layout : L R C LFE Ls Rs
Sampling rate : 48.0 kHz
Frame rate : 31.250 FPS (1536 SPF)
Bit depth : 16 bits
Compression mode : Lossy
Stream size : 327 MiB (8%)
Title : Cold.Pursuit.2019.1080p.WEB-DL.DD5.1.H264-FGT
Language : English
Service kind : Complete Main
Default : Yes
Forced : No

Menu
00:00:00.000 : en:1
00:07:36.000 : en:2
00:16:32.000 : en:3
00:24:06.000 : en:4
00:33:07.000 : en:5
00:43:00.000 : en:6
00:51:34.000 : en:7
01:01:28.000 : en:8
01:10:00.000 : en:9
01:19:16.000 : en:10
01:29:48.000 : en:11
01:37:28.000 : en:12
01:45:32.000 : en:13
01:50:14.000 : en:14






1 个附件(点击附件名进行下载) 售价 大小 下载 时间

0 金币 41.72K 17 次 1月前

#1楼
发帖时间:1月前   |   查看数:0   |   回复数:0
游客组
快速回复