tianji

[WEB-1080P] [其他] [剧情] 为家而战/与家人并肩作战 Fighting.with.My.Family.2019.1080p.WEB-DL.DD5.1.H264-FGT 3.70GB






◎译  名 为家而战 / 与家人并肩作战 / 我和我的摔角家庭(台)
◎片  名 Fighting with My Family
◎年  代 2019
◎产  地 英国 / 美国
◎类  别 剧情 / 喜剧 / 传记 / 运动
◎语  言 英语
◎上映日期 2019-01-28(圣丹斯电影节) / 2019-02-22(美国)
◎IMDb评分 7.3/10 from 21671 users
◎IMDb链接 http://www.imdb.com/title/tt6513120
◎豆瓣评分 6.4/10 from 1487 users
◎豆瓣链接 https://movie.douban.com/subject/26971054/
◎片  长 108分钟
◎导  演 斯戴芬·莫昌特 Stephen Merchant
◎编  剧 斯戴芬·莫昌特 Stephen Merchant
◎主  演 道恩·强森 Dwayne Johnson
      弗洛伦斯·皮尤 Florence Pugh
      杰克·劳登 Jack Lowden
      琳娜·海蒂 Lena Headey
      文斯·沃恩 Vince Vaughn
      斯戴芬·莫昌特 Stephen Merchant
      尼克·弗罗斯特 Nick Frost
      金伯利·马图拉 Kimberly Matula
      希莫斯 Stephen Farrelly
      Saraya-Jade Bevis
      Aqueela Zoll
      艾丽·简 Eli Jane
      保罗·怀特 Paul Wight
      克洛伊·森格瑞 Chloe Csengery
      海伦娜·福尔摩斯 Helena Holmes
      露丝·霍洛克斯 Ruth Horrocks
      杰奎琳·拉姆娜莱恩 Jacqueline Ramnarine
      Gary Baxter
      卡洛·肖尔蒂诺 Carlo Sciortino
      James Burrows
      贝恩·科拉科 Bern Colla?o
      保罗·布莱克维尔 Paul Blackwell
      肖恩·狄克逊 Shawn Dixon
      Fran Targ
      John Heartstone
      约翰·洛巴托 John Lobato
      卡罗尔·斯蒂尔 Karol Steele
      吉米·鲁杰罗 Jimmy Ruggiero


◎标  签 传记 | 运动 | 美国 | 英国 | 2019 | 喜剧 | 道恩强森 | 电影

◎简  介

  巨石强森的新片《为家而战》改编自英国最年轻的女摔角冠军佩吉的真实故事。佩吉(佛罗伦斯·珀 饰演)出生于摔角世家,尽管沉迷摔角的一家人被许多人认为是“怪胎家庭”,但与哥哥(杰克·劳登 饰演)一起加入WWE(世界摔角娱乐)成为最顶级的摔角手一直是佩吉的梦想。哥哥的意外落选,独自被选中进入WWE训练营的佩吉,在同是WWE摔角手的巨石强森的帮助下,发起了为家人“正名”的冠军争夺。值得注意的是,同样来自摔角世家的巨石强森在片中可谓真正的本色演出。

Video
ID : 1
Format : AVC
Format/Info : Advanced Video Codec
Format profile : [email protected]
Format settings : CABAC / 5 Ref Frames
Format settings, CABAC : Yes
Format settings, ReFrames : 5 frames
Codec ID : V_MPEG4/ISO/AVC
Duration : 1 h 48 min
Bit rate : 4 514 kb/s
Width : 1 912 pixels
Height : 792 pixels
Display aspect ratio : 2.40:1
Frame rate mode : Constant
Frame rate : 23.976 FPS
Color space : YUV
Chroma subsampling : 4:2:0
Bit depth : 8 bits
Scan type : Progressive
Bits/(Pixel*Frame) : 0.124
Stream size : 3.41 GiB (92%)
Title : Fighting.with.My.Family.2019.1080p.WEB-DL.DD5.1.H264-FGT
Language : English
Default : Yes
Forced : No
Color range : Limited
Color primaries : BT.709
Transfer characteristics : BT.709
Matrix coefficients : BT.709

Audio
ID : 2
Format : AC-3
Format/Info : Audio Coding 3
Commercial name : Dolby Digital
Codec ID : A_AC3
Duration : 1 h 48 min
Bit rate mode : Constant
Bit rate : 384 kb/s
Channel(s) : 6 channels
Channel layout : L R C LFE Ls Rs
Sampling rate : 48.0 kHz
Frame rate : 31.250 FPS (1536 SPF)
Bit depth : 16 bits
Compression mode : Lossy
Stream size : 297 MiB (8%)
Title : Fighting.with.My.Family.2019.1080p.WEB-DL.DD5.1.H264-FGT
Language : English
Service kind : Complete Main
Default : Yes
Forced : No

Menu
00:00:00.000 : en:1
00:09:23.000 : en:2
00:20:31.000 : en:3
00:31:01.000 : en:4
00:40:15.000 : en:5
00:50:32.000 : en:6
01:00:20.000 : en:7
01:10:09.000 : en:8
01:20:49.000 : en:9
01:30:34.000 : en:10
01:39:53.000 : en:11






1 个附件(点击附件名进行下载) 售价 大小 下载 时间

0 金币 37.52K 40 次 4月前

#1楼
发帖时间:4月前   |   查看数:0   |   回复数:0
游客组
快速回复