wenba

[WEB-1080P] [2018] [欧美] [剧情] 告诉蜜蜂/蜜语 Tell.It.to.the.Bees.2018.1080p.WEB-DL.DD5.1.H264-FGT 3.74GB






◎译  名 告诉蜜蜂 / 蜜语
◎片  名 Tell It to the Bees
◎年  代 2018
◎产  地 英国
◎类  别 剧情 / 同性
◎语  言 英语
◎上映日期 2018-09-09(多伦多电影节)
◎IMDb评分 5.3/10 from 678 users
◎IMDb链接 http://www.imdb.com/title/tt7241926
◎豆瓣评分 7.5/10 from 1317 users
◎豆瓣链接 https://movie.douban.com/subject/27110448/
◎片  长 106分钟
◎导  演 安娜贝尔·杨科尔 Annabel Jankel
◎编  剧 亨里埃塔·阿什沃思 Henrietta Ashworth / 杰茜卡·阿什沃思 Jessica Ashworth / 费欧娜·萧 Fiona Shaw
◎主  演 安娜·帕奎因 Anna Paquin
      格雷戈尔·塞尔科克 Gregor Selkirk
      尤安·梅森 Euan Mason
      荷丽黛·格兰杰 Holliday Grainger
      劳伦·莱尔 Lauren Lyle
      凯特·迪基 Kate Dickie


◎标  签 英国 | 同性 | LGBT | 百合 | Les | 2018 | LGBTQ | 原著改编

◎简  介

  影片根据菲奥娜·肖同名小说改编,故事设置在上世纪50年代的英国小镇,讲述一个有着破裂婚姻的单身母亲(帕奎因饰),与接管已故父亲医疗实践的医生(格兰杰饰)的故事。

Video
ID : 1
Format : AVC
Format/Info : Advanced Video Codec
Format profile : [email protected]
Format settings : CABAC / 5 Ref Frames
Format settings, CABAC : Yes
Format settings, ReFrames : 5 frames
Codec ID : V_MPEG4/ISO/AVC
Duration : 1 h 48 min
Bit rate : 4 566 kb/s
Width : 1 912 pixels
Height : 796 pixels
Display aspect ratio : 2.40:1
Frame rate mode : Constant
Frame rate : 24.000 FPS
Color space : YUV
Chroma subsampling : 4:2:0
Bit depth : 8 bits
Scan type : Progressive
Bits/(Pixel*Frame) : 0.125
Stream size : 3.45 GiB (92%)
Title : Tell.It.to.the.Bees.2019.1080p.WEB-DL.DD5.1.H264-FGT
Language : English
Default : Yes
Forced : No
Color range : Limited
Color primaries : BT.709
Transfer characteristics : BT.709
Matrix coefficients : BT.709

Audio
ID : 2
Format : AC-3
Format/Info : Audio Coding 3
Commercial name : Dolby Digital
Codec ID : A_AC3
Duration : 1 h 48 min
Bit rate mode : Constant
Bit rate : 384 kb/s
Channel(s) : 6 channels
Channel layout : L R C LFE Ls Rs
Sampling rate : 48.0 kHz
Frame rate : 31.250 FPS (1536 SPF)
Bit depth : 16 bits
Compression mode : Lossy
Stream size : 297 MiB (8%)
Title : Tell.It.to.the.Bees.2019.1080p.WEB-DL.DD5.1.H264-FGT
Language : English
Service kind : Complete Main
Default : Yes
Forced : No

Menu
00:00:00.000 : en:1
00:08:45.650 : en:2
00:18:15.552 : en:3
00:30:53.476 : en:4
00:44:56.861 : en:5
00:54:58.337 : en:6
01:17:56.131 : en:7
01:41:07.730 : en:8






1 个附件(点击附件名进行下载) 售价 大小 下载 时间

0 金币 37.93K 28 次 1月前

#1楼
发帖时间:1月前   |   查看数:0   |   回复数:0
游客组
快速回复