tianji

[WEB-1080P] [2017] [欧美] [喜剧] [BT下载]单身汉 The.Bachelors.2017.1080p.WEB-DL.DD5.1.H264-FGT 3.46GB



-->

The.Bachelors.2017.1080p.WEB-DL.DD5.1.H264-FGT

◎译  名 单身汉/TheWholeNewEverything

◎片  名 The Bachelors

◎年  代 2017

◎产  地 美国

◎类  别 剧情/喜剧

◎语  言 英语

◎上映日期 2017-10-20(美国)

◎BT之家整理 http://www.btbtt.co

◎片  长 108分钟

◎导  演 Kurt Voelker

◎主  演 J·K·西蒙斯 J.K. Simmons

      朱莉·德尔佩 Julie Delpy

      奥德娅·拉什 Odeya Rush

      凯文·杜恩 Kevin Dunn

      杰·海德 Jae Head

      乔什·维金斯 Josh Wiggins

      汤姆·阿曼德茨 Tom Amandes

      斯宾塞·李斯特 Spencer List

      T.J.拉米尼 T.J. Ramini

      Jean Louisa Kelly


◎简  介


  故事讲述J.K.西蒙斯饰演的比尔,因丧妻之痛,离开小城,与17岁的儿子韦斯搬到洛杉矶开始新生活,并遇到了朱莉饰演优雅女教师。


Video
ID                                       : 1
Format                                   : AVC
Format/Info                              : Advanced Video Codec
Format profile                           : High@L4
Format settings                          : CABAC / 5 Ref Frames
Format settings, CABAC                   : Yes
Format settings, ReFrames                : 5 frames
Codec ID                                 : V_MPEG4/ISO/AVC
Duration                                 : 1 h 39 min
Bit rate                                 : 4 575 kb/s
Width                                    : 1 920 pixels
Height                                   : 796 pixels
Display aspect ratio                     : 2.40:1
Frame rate mode                          : Constant
Frame rate                               : 23.976 (24000/1001) FPS
Color space                              : YUV
Chroma subsampling                       : 4:2:0
Bit depth                                : 8 bits
Scan type                                : Progressive
Bits/(Pixel*Frame)                       : 0.125
Stream size                              : 3.19 GiB (92%)
Title                                    : The.Bachelors.2017.1080p.WEB-DL.DD5.1.H264-FGT
Language                                 : English
Default                                  : Yes
Forced                                   : No
Color range                              : Limited
Color primaries                          : BT.709
Transfer characteristics                 : BT.709
Matrix coefficients                      : BT.709

Audio
ID                                       : 2
Format                                   : AC-3
Format/Info                              : Audio Coding 3
Codec ID                                 : A_AC3
Duration                                 : 1 h 39 min
Bit rate mode                            : Constant
Bit rate                                 : 384 kb/s
Channel(s)                               : 6 channels
Channel positions                        : Front: L C R, Side: L R, LFE
Sampling rate                            : 48.0 kHz
Frame rate                               : 31.250 FPS (1536 SPF)
Bit depth                                : 16 bits
Compression mode                         : Lossy
Delay relative to video                  : -42 ms
Stream size                              : 274 MiB (8%)
Title                                    : The.Bachelors.2017.1080p.WEB-DL.DD5.1.H264-FGT
Language                                 : English
Service kind                             : Complete Main
Default                                  : Yes
Forced                                   : No

Text
ID                                       : 3
Format                                   : UTF-8
Codec ID                                 : S_TEXT/UTF8
Codec ID/Info                            : UTF-8 Plain Text
Duration                                 : 1 h 36 min
Bit rate                                 : 57 b/s
Count of elements                        : 1333
Stream size                              : 40.6 KiB (0%)
Language                                 : English
Default                                  : Yes
Forced                                   : No

Menu
00:00:00.000                             : en:1
00:10:46.312                             : en:2
00:20:13.295                             : en:3
00:33:30.884                             : en:4
00:47:03.613                             : en:5
00:58:24.835                             : en:6
01:08:16.510                             : en:7
01:19:44.197                             : en:8
01:28:14.790                             : en:9
01:36:24.779                             : en:10




1 个附件(点击附件名进行下载) 售价 大小 下载 时间

The.Bachelors.2017.1080p.WEB-DL.DD5.1.H264-FGT[btbtt.me].torrent [详情] 0 金币 69.73K 41 次 3月前

#1楼
发帖时间:3月前   |   查看数:0   |   回复数:1
kennychang0407
哔哩BT有你,更精彩!
3月前 #2楼
游客组
快速回复