jianpanshou

[BD-1080P] [2017] [欧美] [剧情] [BT下载]蝴蝶树 The.Butterfly.Tree.2017.1080p.BluRay.x264.DTS-MT 11.19GB



-->

The.Butterfly.Tree.2017.1080p.BluRay.x264.DTS-MT

◎译  名 蝴蝶树

◎片  名 The Butterfly Tree

◎年  代 2017

◎产  地 澳大利亚

◎类  别 剧情

◎语  言 英语

◎上映日期 2017-09-10(多伦多国际电影节)

◎IMDb评分  5.3/10 from 97 users

◎IMDb链接  http://www.imdb.com/title/tt5896660/

◎BT之家整理 http://www.btbtt.me/

◎片  长 120分钟

◎导  演 Priscilla Cameron

◎主  演 梅利莎·乔治 Melissa George

      苏菲·洛 Sophie Lowe

      艾德·奥克森博尔德 Ed Oxenbould

      伊文·莱斯利 Ewen Leslie

      山姆·柯顿 Sam Cotton


◎简  介


  讲述一个鳏夫父亲Al和他的青少年儿子Fin都爱上了Evelyn——前脱衣舞女王,现在从事花艺职业。当他们发现要竞争同一个女人后,旧疮疤也再次被揭开。


Video
ID                                       : 1
Format                                   : AVC
Format/Info                              : Advanced Video Codec
Format profile                           : High@L4.1
Format settings                          : CABAC / 5 Ref Frames
Format settings, CABAC                   : Yes
Format settings, ReFrames                : 5 frames
Codec ID                                 : V_MPEG4/ISO/AVC
Duration                                 : 1 h 36 min
Bit rate                                 : 15.2 Mb/s
Width                                    : 1 920 pixels
Height                                   : 860 pixels
Display aspect ratio                     : 2.25:1
Frame rate mode                          : Constant
Frame rate                               : 23.976 (24000/1001) FPS
Color space                              : YUV
Chroma subsampling                       : 4:2:0
Bit depth                                : 8 bits
Scan type                                : Progressive
Bits/(Pixel*Frame)                       : 0.383
Stream size                              : 10.2 GiB (91%)
Title                                    : The.Butterfly.Tree.2017.1080p.BluRay.x264.DTS-MT
Language                                 : English
Default                                  : Yes
Forced                                   : No

Audio
ID                                       : 2
Format                                   : DTS
Format/Info                              : Digital Theater Systems
Codec ID                                 : A_DTS
Duration                                 : 1 h 36 min
Bit rate mode                            : Constant
Bit rate                                 : 1 509 kb/s
Channel(s)                               : 6 channels
Channel positions                        : Front: L C R, Side: L R, LFE
Sampling rate                            : 48.0 kHz
Frame rate                               : 93.750 FPS (512 SPF)
Bit depth                                : 24 bits
Compression mode                         : Lossy
Stream size                              : 1.01 GiB (9%)
Title                                    : The.Butterfly.Tree.2017.1080p.BluRay.x264.DTS-MT
Language                                 : English
Default                                  : Yes
Forced                                   : No





1 个附件(点击附件名进行下载) 售价 大小 下载 时间

The.Butterfly.Tree.2017.1080p.BluRay.x264.DTS-MT[btbtt.me].torrent [详情] 0 金币 56.47K 21 次 8天前

#1楼
发帖时间:8天前   |   查看数:0   |   回复数:1
hanlykim
哔哩BT有你,更精彩!
7天前 #2楼
游客组
快速回复