wenba

[WEB-1080P] [2015] [欧美] [纪录] [BT下载]辣妞征集/搜寻辣妹 Hot.Girls.Wanted.2015.1080p.WEBRip.DD2.0.x264-TrollHD 5.47GB



◎译  名 辣妞征集/搜寻辣妹

◎片  名 Hot Girls Wanted

◎年  代 2015

◎国  家 美国

◎类  别 纪录片

◎语  言 英语

◎上映日期 2015-01-24

◎IMDb评分  6.1/10 from 9,321 users

◎IMDb链接  http://www.imdb.com/title/tt4382552/

◎豆瓣评分 6.6/10 from 1,709 users

◎豆瓣链接 https://movie.douban.com/subject/26276371/

◎片  长 84分钟

◎导  演 Jill Bauer / Ronna Gradus

◎主  演 Kendall Plemons

      Tressa Silguero


◎简  介


  是自由还是叛逆?是个性还是堕落?国外有着这样的一群年轻女孩,她们涉世未深,她们不满父母与现实的束缚。在18-21岁这样一个懵懂而又美好的年纪里接受了金钱的诱惑进入了桃色产业。纪录片《辣妞征集》带你走进她们背后的故事,领略其心路历程。


◎获奖情况


  第31届圣丹斯电影节  (2015)

  评审团大奖 纪录片(提名)


Video
ID                                       : 1
Format                                   : AVC
Format/Info                              : Advanced Video Codec
Format profile                           : [email protected]
Format settings, CABAC                   : Yes
Format settings, ReFrames                : 4 frames
Codec ID                                 : V_MPEG4/ISO/AVC
Duration                                 : 1h 22mn
Bit rate                                 : 8 864 Kbps
Width                                    : 1 920 pixels
Height                                   : 1 080 pixels
Display aspect ratio                     : 16:9
Frame rate mode                          : Constant
Frame rate                               : 29.970 (30000/1001) fps
Color space                              : YUV
Chroma subsampling                       : 4:2:0
Bit depth                                : 8 bits
Scan type                                : Progressive
Bits/(Pixel*Frame)                       : 0.143
Stream size                              : 5.10 GiB (93%)
Writing library                          : x264 core 146 r2538 121396c
Encoding settings                        : cabac=1 / ref=4 / deblock=1:-2:-2 / analyse=0x3:0x133 / me=umh / subme=10 / psy=1 / psy_rd=1.00:0.15 / mixed_ref=1 / me_range=48 / chroma_me=1 / trellis=2 / 8x8dct=1 / cqm=0 / deadzone=21,11 / fast_pskip=1 / chroma_qp_offset=-3 / threads=12 / lookahead_threads=2 / sliced_threads=0 / nr=0 / decimate=0 / interlaced=0 / bluray_compat=0 / constrained_intra=0 / bframes=8 / b_pyramid=2 / b_adapt=2 / b_bias=0 / direct=3 / weightb=1 / open_gop=0 / weightp=2 / keyint=300 / keyint_min=29 / scenecut=40 / intra_refresh=0 / rc_lookahead=60 / rc=crf / mbtree=1 / crf=18.0 / qcomp=0.70 / qpmin=0 / qpmax=69 / qpstep=4 / vbv_maxrate=300000 / vbv_bufsize=300000 / crf_max=0.0 / nal_hrd=none / filler=0 / ip_ratio=1.30 / aq=1:0.90
Default                                  : Yes
Forced                                   : No

Audio
ID                                       : 2
Format                                   : AC-3
Format/Info                              : Audio Coding 3
Mode extension                           : CM (complete main)
Format settings, Endianness              : Big
Codec ID                                 : A_AC3
Duration                                 : 1h 22mn
Bit rate mode                            : Constant
Bit rate                                 : 640 Kbps
Channel(s)                               : 2 channels
Channel positions                        : Front: L R
Sampling rate                            : 48.0 KHz
Frame rate                               : 31.250 fps (1536 spf)
Compression mode                         : Lossy
Stream size                              : 377 MiB (7%)
Language                                 : English
Default                                  : Yes
Forced                                   : No




1 个附件(点击附件名进行下载) 售价 大小 下载 时间

Hot.Girls.Wanted.2015.1080p.WEBRip.DD2.0.x264-TrollHD[btbtt.co].torrent [详情] 0 金币 55.33K 53 次 4月前

#1楼
发帖时间:4月前   |   查看数:0   |   回复数:0
游客组
快速回复