style

[WEB-1080P] [2013] [欧美] [纪录] [BT下载]裸露 Exposed.2013.1080p.WEBRip.DD5.1.x264-TrollHD 6.39GB



◎译  名 裸露

◎片  名 EXPOSED

◎年  代 2013

◎国  家 美国

◎类  别 纪录片

◎语  言 英语

◎IMDb评分  6.9/10 from 62 users

◎IMDb链接  http://www.imdb.com/title/tt2649370/

◎BT之家整理 http://www.btbtt.co  

◎片  长 77分钟

◎导  演 Beth B.

◎主  演 Julie Atlas Muz

      Mat Fraser

      Dirty Martini


◎简  介


  EXPOSED profiles eight women and men who use their nakedness to transport us beyond the last sexual and social taboos that our society holds dear. These cutting edge performers -- operating on the far edge of burlesque -- combine politics, satire, and physical comedy to question the very concept of 'normal.' Flying high with them, we get to look down on our myriad inhibitions. This film creates a unique perspective, taking the audience into the clubs an other hidden spaces where 'new burlesque' is challenging traditional notions of body, gender, and sexuality. The body types of the performers range from statuesque to trans-gender to disabled, and their personalities from sensational to scintillating.


Video
ID                                       : 2
Format                                   : AVC
Format/Info                              : Advanced Video Codec
Format profile                           : [email protected]
Format settings, CABAC                   : Yes
Format settings, ReFrames                : 4 frames
Codec ID                                 : V_MPEG4/ISO/AVC
Duration                                 : 1h 16mn
Bit rate mode                            : Variable
Bit rate                                 : 11.7 Mbps
Maximum bit rate                         : 15.0 Mbps
Width                                    : 1 920 pixels
Height                                   : 1 080 pixels
Display aspect ratio                     : 16:9
Frame rate mode                          : Constant
Frame rate                               : 29.970 (30000/1001) fps
Color space                              : YUV
Chroma subsampling                       : 4:2:0
Bit depth                                : 8 bits
Scan type                                : Progressive
Bits/(Pixel*Frame)                       : 0.189
Stream size                              : 6.27 GiB (98%)
Writing library                          : x264 core 148 r2623 d5b2374
Encoding settings                        : cabac=1 / ref=4 / deblock=1:-1:-1 / analyse=0x3:0x133 / me=umh / subme=9 / psy=1 / psy_rd=1.00:0.15 / mixed_ref=1 / me_range=24 / chroma_me=1 / trellis=2 / 8x8dct=1 / cqm=0 / deadzone=21,11 / fast_pskip=1 / chroma_qp_offset=-3 / threads=34 / lookahead_threads=5 / sliced_threads=0 / nr=150 / decimate=1 / interlaced=0 / bluray_compat=0 / constrained_intra=0 / bframes=8 / b_pyramid=2 / b_adapt=2 / b_bias=0 / direct=3 / weightb=1 / open_gop=0 / weightp=2 / keyint=150 / keyint_min=76 / scenecut=0 / intra_refresh=0 / rc_lookahead=150 / rc=crf / mbtree=1 / crf=18.0 / qcomp=0.60 / qpmin=0 / qpmax=69 / qpstep=4 / vbv_maxrate=15000 / vbv_bufsize=31250 / crf_max=0.0 / nal_hrd=vbr / filler=0 / ip_ratio=1.40 / aq=3:1.00
Default                                  : Yes
Forced                                   : No
Color range                              : Limited
Color primaries                          : BT.709
Transfer characteristics                 : BT.709
Matrix coefficients                      : BT.709

Audio
ID                                       : 1
Format                                   : E-AC-3
Format/Info                              : Audio Coding 3
Format settings, Endianness              : Big
Codec ID                                 : A_EAC3
Duration                                 : 1h 16mn
Bit rate mode                            : Constant
Bit rate                                 : 224 Kbps
Channel(s)                               : 2 channels
Channel positions                        : Front: L R
Sampling rate                            : 48.0 KHz
Frame rate                               : 187.500 fps (256 spf)
Compression mode                         : Lossy
Stream size                              : 123 MiB (2%)
Language                                 : English
Default                                  : Yes
Forced                                   : No

Text
ID                                       : 3
Format                                   : UTF-8
Codec ID                                 : S_TEXT/UTF8
Codec ID/Info                            : UTF-8 Plain Text
Duration                                 : 1h 14mn
Bit rate                                 : 80 bps
Count of elements                        : 1220
Stream size                              : 43.7 KiB (0%)
Default                                  : Yes
Forced                                   : No





1 个附件(点击附件名进行下载) 售价 大小 下载 时间

Exposed.2013.1080p.WEBRip.DD5.1.x264-TrollHD[btbtt.co].torrent [详情] 0 金币 64.53K 52 次 4月前

#1楼
发帖时间:4月前   |   查看数:0   |   回复数:0
游客组
快速回复