qunide

[WEB-1080P] [2015] [欧美] [纪录] [BT下载]孤独症需要爱 Autism.in.Love.2015.1080p.WEBRip.DD2.0.x264-TrollHD 3.5GB




◎译  名 孤独症需要爱

◎片  名 Autism in Love

◎年  代 2015

◎国  家 美国

◎上映日期 2015-04-16

◎IMDb评分  7.7/10 from 332 users

◎IMDb链接  http://www.imdb.com/title/tt3719452/

◎豆瓣评分 0/10 from 7 users

◎豆瓣链接 https://movie.douban.com/subject/26683881/

◎片  长 76分钟

◎导  演 Matt Fuller

◎主  演 Bob Tarasuk

      Polly MacIntyre


◎简  介


  Autism in Love follows the story of four adults with autism spectrum disorders as they search for and manage romantic relationships.

  該片講述了四個成年孤獨症患者對戀愛的渴望以及婚姻關係的日常生活。


Video
ID                                       : 1
Format                                   : AVC
Format/Info                              : Advanced Video Codec
Format profile                           : [email protected]
Format settings, CABAC                   : Yes
Format settings, ReFrames                : 4 frames
Codec ID                                 : V_MPEG4/ISO/AVC
Duration                                 : 1h 14mn
Bit rate                                 : 6 085 Kbps
Width                                    : 1 920 pixels
Height                                   : 1 080 pixels
Display aspect ratio                     : 16:9
Frame rate mode                          : Constant
Frame rate                               : 23.976 (24000/1001) fps
Color space                              : YUV
Chroma subsampling                       : 4:2:0
Bit depth                                : 8 bits
Scan type                                : Progressive
Bits/(Pixel*Frame)                       : 0.122
Stream size                              : 3.18 GiB (90%)
Writing library                          : x264 core 148 r2638 7599210
Encoding settings                        : cabac=1 / ref=4 / deblock=1:-2:-2 / analyse=0x3:0x133 / me=umh / subme=10 / psy=1 / psy_rd=1.00:0.15 / mixed_ref=1 / me_range=48 / chroma_me=1 / trellis=2 / 8x8dct=1 / cqm=0 / deadzone=21,11 / fast_pskip=1 / chroma_qp_offset=-3 / threads=12 / lookahead_threads=2 / sliced_threads=0 / nr=0 / decimate=0 / interlaced=0 / bluray_compat=0 / constrained_intra=0 / bframes=8 / b_pyramid=2 / b_adapt=2 / b_bias=0 / direct=3 / weightb=1 / open_gop=0 / weightp=2 / keyint=240 / keyint_min=23 / scenecut=40 / intra_refresh=0 / rc_lookahead=60 / rc=crf / mbtree=1 / crf=18.0 / qcomp=0.70 / qpmin=0 / qpmax=69 / qpstep=4 / vbv_maxrate=300000 / vbv_bufsize=300000 / crf_max=0.0 / nal_hrd=none / filler=0 / ip_ratio=1.30 / aq=1:0.90
Default                                  : Yes
Forced                                   : No

Audio
ID                                       : 2
Format                                   : AC-3
Format/Info                              : Audio Coding 3
Mode extension                           : CM (complete main)
Format settings, Endianness              : Big
Codec ID                                 : A_AC3
Duration                                 : 1h 14mn
Bit rate mode                            : Constant
Bit rate                                 : 640 Kbps
Channel(s)                               : 2 channels
Channel positions                        : Front: L R
Sampling rate                            : 48.0 KHz
Frame rate                               : 31.250 fps (1536 spf)
Compression mode                         : Lossy
Stream size                              : 342 MiB (10%)
Language                                 : English
Default                                  : Yes
Forced                                   : No





1 个附件(点击附件名进行下载) 售价 大小 下载 时间

Autism.in.Love.2015.1080p.WEBRip.DD2.0.x264-TrollHD[btbtt.co].torrent [详情] 0 金币 70.84K 21 次 6月前

#1楼
发帖时间:6月前   |   查看数:0   |   回复数:0
游客组
快速回复